当前位置:
首页 > 新片 > [2015][欧美][明日世界 Tomorrowland][HDTS高清下载]

[2015][欧美][明日世界 Tomorrowland][HDTS高清下载]

[2015][欧美][明日世界 Tomorrowland][HDTS高清下载]

◎译  名 明日世界/未来乐园/未下世界

◎片  名 Tomorrowland

◎年  代 2015

◎国  家 美国/西班牙

◎类  别 动作/科幻/冒险

◎语  言 英语

◎上映日期 2015-05-22(美国)/2015-05-26(中国大陆)

◎IMDb评分  6.7/10 from 34,889 users

◎IMDb链接  http://www.imdb.com/title/tt1964418/

◎片  长 130分钟

◎导  演 布拉德·伯德 Brad Bird

◎主  演 布丽特·罗伯森 Britt Robertson

      乔治·克鲁尼 George Clooney

      拉菲·卡西迪 Raffey Cassidy

      休·劳瑞 Hugh Laurie

      托马斯·罗宾逊 Thomas Robinson

      皮尔斯·加格农 Pierce Gagnon

      蒂姆·麦格罗 Tim McGraw

      朱迪·格雷尔 Judy Greer

      凯瑟琳·哈恩 Kathryn Hahn

      科甘·迈克尔·基 Keegan Michael Key

      洛奇林·莫罗 Lochlyn Munro

      阿莉娅·奥伯里恩 Aliyah O'Brien

      达伦·萨赫拉维 Darren Shahlavi

      迈克尔·罗 Michael Rowe

      渴攀里斯·鲍尔 Chris Bauer

      莫妮卡·甘德顿 Monique Ganderton

      保罗·麦克吉莱恩 Paul McGillion

      艾米·伊斯特尔 Amy Esterle

      杰迪代亚·古达克 Jedidiah Goodacre

      马库斯·罗斯纳 Marcus Rosner

      马修·麦考尔 Matthew MacCaull

      克林特·卡尔顿 Clint Carleton

 

◎简  介

 

  二十世纪初,爱迪生、巴黎铁塔总设计师埃菲尔、“交换电之父”尼古拉·特斯拉和其他顶尖的科学家、艺术家组成了一个隐秘整体,配合打造一个理想设计——明日世界,传言中,华特·迪士尼也是创办人之一,在他的遗物中有一个黑盒子,装着神秘的机关。可是这个设计却出了意外,“明日世界”也从此磨灭。

  弗兰克(乔治·克鲁尼 George Clooney 饰)少年时曾亲眼目睹“明日世界”,但意外之后便过着半隐居的糊口,直到智慧的少女凯茜(布丽特·罗伯森 Britt Robertson 饰)找上门,凯茜对科学和人命都充满热情,在无意间发清楚明了神秘的徽章,她需要弗兰克的协助,破解零星线索,找到隐躲在神秘时空里的“明日世界”,以转变仁攀类的命运……

 

影片参赛

Tomorrowland 2015 HD-TS XVID AC3 HQ Hive-CM8

seeders: 4651leechers: 4058

   DOWNLOAD TORRENT

Added on Jun 21, 2015 by  Silmarillion451.31K in Movies

Torrent verified.        Downloaded 28,984 times.

MAIN

 

TECHNICAL

 

TRAILER

 

SCREENSHOTS

 

COMMENTS 71

 

Movie: Tomorrowland

Detected quality: TeleSync

IMDb link: 1964418

IMDb rating: 6.7 (32,200 votes)

RottenTomatoes: 50% 57%

Genres: Sci Fi, Mystery

 

add Tomorrowland to bookmarks

Release date: 22 May 2015

Writers: Damon Lindelof (screenplay), Brad Bird (screenplay), Damon Lindelof (story), Brad Bird (story), Jeff Jensen (story)

Language: English

Cast: George Clooney, Judy Greer, Kathryn Hahn, Brittany Robertson and others Summary:

Bound by a shared destiny, a teen bursting with scientific curiosity and a former boy-genius inventor embark on a mission to unearth the secrets of a place somewhere in time and space that exists in their collective memory.

Written by  AgentEncore45.55K

report summary

Available in versions:

720PHDRIPX264TELESYNCCAM

Tomorrowland 2015 HD-TS XVID AC3 HQ Hive-CM8 (Size: 1.8 GB)

         Tomorrowland.2015.HD-TS.XVID.AC3.HQ.Hive-CM8.avi        1.75 GB

         Tomorrowland.2015.HD-TS.XVID.AC3.HQ.Hive-CM8.nfo        4.94 KB

         Torrent Downloaded From ExtraTorrent.cc.txt        338 bytes

         sample.avi        46.59 MB

Description

image

 

http://www.imdb.com/title/tt1964418/

 

Bound by a shared destiny, a teen bursting with scientific curiosity and a former boy-genius inventor embark on a mission to unearth the secrets of a place somewhere in time and space that exists in their collective memory.

 

Director: Brad Bird

Writers: Damon Lindelof (screenplay), Brad Bird (screenplay)

Stars: George Clooney, Britt Robertson, Hugh Laurie

Genres: Action | Adventure | Mystery | Sci-Fi

Country: USA

Language: English

 

Tomorrowland.2015.HD-TS.XVID.AC3.HQ.Hive-CM8

 

Thx Hive

 

CM8 Doing It Right The First Time

 

Sources:

Video: 1080P HDCAM from Incoming (big thx)

Audio: Line from Mr.Seen-Simple

thx guys

 

Notes:

not a day 1 release,lol, but it was needed

The versions out so far were far from great, the last one was at least watchable-ish but half the screen was cropped, cant enjoy a movie like this

Incoming was so nice to get me a perfect new cam for this, full-widescreen, nothing is cropped from any side

no movements,no focus issues, you cant do a better cam than this

so instead of reproducing same thing that already been done i work on this new source so you guys have new thing and got it pretty sexy <<<<<< [2015][欧美][明日世界 Tomorrowland][HDTS高清下载]:

 

Encode:

quality was already very very nice, some flicker here and there which i removed as needed, adjusted colours and removed some noise in the video

Did avi the usual size and 720p mkv for the quality hunters

Audio is the Line from Mr.Seen-Simple which i cleaned the usual way and lipsynced it to my videos

 

it wont get better than this, will do me till retail

enjoy

 

Video: 720x384@bitrate 1800 2pass

Audio: Line AC3 2.0 Stereo

Sample:yes included

 

PS:

Quality: Video:10, Audio:9

http://www.imdb.com/title/tt1964418/

 

General

Complete name: Tomorrowland.2015.HD-TS.XVID.AC3.HQ.Hive-CM8.avi

Format: AVI

Format/Info: Audio Video Interleave

File size: 1.75 GiB

Duration: 2h 1mn

Overall bit rate: 2 066 Kbps

Writing application: Nandub v1.0rc2

Writing library: Nandub build 1853/release

 

Video

ID: 0

Format: MPEG-4 Visual

Format profile: Advanced Simple@L5

Format settings, BVOP: 2

Format settings, QPel: Yes

Format settings, GMC: No warppoints

Format settings, Matrix: Default (H.263)

Muxing mode: Packed bitstream

Codec ID: XVID

Codec ID/Hint: XviD

Duration: 2h 1mn

Bit rate: 1 798 Kbps

Width: 720 pixels

Height: 384 pixels

Display aspect ratio: 1.85:1

Frame rate: 30.000 fps

Color space: YUV

Chroma subsampling: 4:2:0

Bit depth: 8 bits

Scan type: Progressive

Compression mode: Lossy

Bits/(Pixel*Frame): 0.217

Stream size: 1.53 GiB (87%)

Writing library: XviD 1.2.1 (UTC 2008-12-04)

 

Audio

ID: 1

Format: AC-3

Format/Info: Audio Coding 3

Mode extension: CM (complete main)

Format settings, Endianness: Big

Codec ID: 2000

Duration: 2h 1mn

Bit rate mode: Constant

Bit rate: 256 Kbps

Channel(s): 2 channels

Channel positions: Front: L R

Sampling rate: 48.0 KHz

Bit depth: 16 bits

Compression mode: Lossy

Delay relative to video: 1ms

Stream size: 222 MiB (12%)

Alignment: Split accross interleaves

Interleave, duration: 33 ms (1.00 video frame)

Interleave, preload duration: 500 ms

 

[2015][欧美][明日世界 Tomorrowland][HDTS高清下载]
[2015][欧美][明日世界 Tomorrowland][HDTS高清下载]
[2015][欧美][明日世界 Tomorrowland][HDTS高清下载]
[2015][欧美][明日世界 Tomorrowland][HDTS高清下载]
[2015][欧美][明日世界 Tomorrowland][HDTS高清下载]
[2015][欧美][明日世界 Tomorrowland][HDTS高清下载]
[2015][欧美][明日世界 Tomorrowland][HDTS高清下载]
[2015][欧美][明日世界 Tomorrowland][HDTS高清下载]

 

提示:推荐使用BitComet、Utorrent、QQ旋风、迅雷下载。喜欢在线看的朋友可以把种子上传到百度网盘、115网盘,离线下载完手机电脑都可以在线看。

[2015][欧美][明日世界 Tomorrowland][HDTS高清下载]:等您坐沙发呢!

发表评论

您必须 [ 登录 ] 才能发表留言!