当前位置:
首页 > 新片 > 《终结者:创世纪/终结者5》Terminator.Genisys(2015)[HD-MKV/3.52G]

《终结者:创世纪/终结者5》Terminator.Genisys(2015)[HD-MKV/3.52G]

《终结者:创世纪/终结者5》Terminator.Genisys(2015)[HD-MKV/3.52G]

◎译  名 终结者:创世纪/终结者5/未来战士:创世智能(港)/魔鬼终结者:创世契机(台)/终结者:创世/终结者:造物主
◎片  名 Terminator Genisys
◎年  代 2015
◎国  家 美国
◎类  别 动作/科幻/惊悚
◎语  言 英语
◎上映日期 2015-07-01(美国)/2015-08-23(中国大陆)
◎IMDb评分  7.0/10 from 68,477 users
◎IMDb链接  http://www.imdb.com/title/tt1340138/
◎片  长 126分钟
◎导  演 阿兰·泰勒 Alan Taylor
◎主  演 阿诺·施瓦辛格 Arnold Schwarzenegger
杰森·克拉科 Jason Clarke
艾米莉亚·克拉克 Emilia Clarke
杰·科特尼 Jai Courtney
J·K·西蒙斯 J.K. Simmons
戴奥·奥柯奈伊 Dayo Okeniyi
马特·史密斯 Matt Smith
考特尼·万斯 Courtney B. Vance
李秉宪 Byeng-hun Lee
迈克尔·盖拉迪斯 Michael J. X. Gladis
何家蓓 Sandrine Holt
韦恩·巴斯楚普 Wayne Bastrup
格雷戈里·艾伦·威廉斯 Gregory Alan Williams
奥托·桑切斯 Otto Sanchez
马蒂·费拉罗 Matty Ferraro
格里夫·弗斯特 Griff Furst
伊恩·埃瑟里奇 Ian Etheridge
诺兰·格罗斯 Nolan Gross
塞思·梅里韦瑟 Seth Meriwether
阿非莫·奥米拉 Afemo Omilami
特瑞·韦伯 Teri Wyble
凯莉·奥马利 Kerry O'Malley

◎简  介

从2029年“审判日”后人类与机器决战的末世未来开始,人类反抗军领袖约翰·康纳(杰森·克拉科 Jason Clarke 饰)将忠实部下凯尔·里斯(杰·科特尼 Jai Courtney 饰)送回1984年,保护自己的亲生母亲莎拉·康纳(艾米莉亚·克拉克 Emilia Clarke 饰)不被终结者杀害。凯尔却首先遭遇了液态金属终结者T-1000(李秉宪 Byeng-hun Lee 饰)的追杀,被莎拉救下后,凯尔发现终结者T-800(阿诺·施瓦辛格 Arnold Schwarzenegger 饰)成为莎拉的“养父”,而眼前的世界一切与预计中完全不同,一场关乎人类未来的“人机”大战正式上演……

Video
ID                                       : 1
Format                                   : AVC
Format/Info                              : Advanced Video Codec
Format profile                           : High@L4.1
Format settings, CABAC                   : Yes
Format settings, ReFrames                : 4 frames
Format settings, GOP                     : M=1, N=12
Codec ID                                 : avc1
Codec ID/Info                            : Advanced Video Coding
Duration                                 : 2h 0mn
Bit rate                                 : 3 958 Kbps
Width                                    : 1 920 pixels
Height                                   : 804 pixels
Display aspect ratio                     : 2.40:1
Frame rate mode                          : Constant
Frame rate                               : 30.000 fps
Standard                                 : Component
Color space                              : YUV
Chroma subsampling                       : 4:2:0
Bit depth                                : 8 bits
Scan type                                : Progressive
Bits/(Pixel*Frame)                       : 0.085
Stream size                              : 3.33 GiB (94%)
Title                                    : Terminator.Genisys.2015.1080p.HDRip.KORSUB.x264.AAC2.0-RARBG
Language                                 : English
Color range                              : Limited

Audio
ID                                       : 2
Format                                   : AAC
Format/Info                              : Advanced Audio Codec
Format profile                           : LC
Codec ID                                 : 40
Duration                                 : 2h 0mn
Bit rate mode                            : Constant
Bit rate                                 : 224 Kbps
Channel(s)                               : 2 channels
Channel positions                        : Front: L R
Sampling rate                            : 48.0 KHz
Compression mode                         : Lossy
Stream size                              : 193 MiB (5%)
Title                                    : Terminator.Genisys.2015.1080p.HDRip.KORSUB.x264.AAC2.0-RARBG
Language                                 : English

 

《终结者:创世纪/终结者5》Terminator.Genisys(2015)[HD-MKV/3.52G] 《终结者:创世纪/终结者5》Terminator.Genisys(2015)[HD-MKV/3.52G] 《终结者:创世纪/终结者5》Terminator.Genisys(2015)[HD-MKV/3.52G] 《终结者:创世纪/终结者5》Terminator.Genisys(2015)[HD-MKV/3.52G] 《终结者:创世纪/终结者5》Terminator.Genisys(2015)[HD-MKV/3.52G] 《终结者:创世纪/终结者5》Terminator.Genisys(2015)[HD-MKV/3.52G]

 

 

提示:推荐使用BitComet、Utorrent、QQ旋风、迅雷下载。喜欢在线看的朋友可以把种子上传到百度网盘、115网盘,离线下载完手机电脑都可以在线看。

《终结者:创世纪/终结者5》Terminator.Genisys(2015)[HD-MKV/3.52G]:等您坐沙发呢!

发表评论

您必须 [ 登录 ] 才能发表留言!