当前位置:
首页 > 新片 > 《复仇者联盟2:奥创纪元》Avengers: Age of Ultron(2015)[MKV-1080P/9.8GB]

《复仇者联盟2:奥创纪元》Avengers: Age of Ultron(2015)[MKV-1080P/9.8GB]

《复仇者联盟2:奥创纪元》Avengers: Age of Ultron(2015)[MKV-1080P/9.8GB]

◎译  名 复仇者联盟2:奥创纪元/复仇者联盟2/复仇者联盟:奥创时代/复联2
◎片  名 Avengers: Age of Ultron
◎年  代 2015
◎国  家 美国
◎类  别 动作/科幻/奇幻/冒险
◎语  言 英语
◎字  幕 N/A
◎IMDb评分  7.9/10 from 260,432 users
◎IMDB链接 http://www.imdb.com/title/tt2395427/
◎文件格式 x264 + AC3
◎视频尺寸 1280 x 539
◎文件大小 3.20 GiB
◎片  长 2h21m33sec
◎导  演 乔斯·韦登 Joss Whedon
◎主  演 小罗伯特·唐尼 Robert Downey Jr.
克里斯·海姆斯沃斯 Chris Hemsworth
马克·鲁弗洛 Mark Ruffalo
克里斯·埃文斯 Chris Evans
斯嘉丽·约翰逊 Scarlett Johansson
杰瑞米·雷纳 Jeremy Renner
詹姆斯·斯派德 James Spader
塞缪尔·杰克逊 Samuel L. Jackson
唐·钱德尔 Don Cheadle
亚伦·泰勒-约翰逊 Aaron Taylor-Johnson
伊丽莎白·奥尔森 Elizabeth Olsen
保罗·贝坦尼 Paul Bettany
寇碧·史莫德斯 Cobie Smulders
安东尼·麦凯 Anthony Mackie
海莉·阿特维尔 Hayley Atwell
伊德里斯·艾尔巴 Idris Elba
斯特兰·斯卡斯加德 Stellan Skarsg?rd
金秀贤 Soo-hyun Kim
托马斯·克莱舒曼 Thomas Kretschmann
安迪·瑟金斯 Andy Serkis
朱莉·德尔佩 Julie Delpy
斯坦·李 Stan Lee
亨利·古德曼 Henry Goodman
多米尼克·普罗沃斯特-切克利 Dominique Provost-Chalkley
艾萨克·安德鲁斯 Isaac Andrews

◎简  介

托尼·斯塔克(小罗伯特·唐尼 Robert Downey Jr. 饰)试图重启一个已经废弃的维和项目,不料该项目却成为危机导火索。世上最强大的超级英雄——钢铁侠、美国队长(克里斯·埃文斯 Chris Evans 饰)、雷神(克里斯·海姆斯沃斯 Chris Hemsworth 饰)、绿巨人(马克·鲁弗洛 Mark Ruffalo 饰)、黑寡妇(斯嘉丽·约翰逊 Scarlett Johansson 饰)和鹰眼(杰瑞米·雷纳 Jeremy Renner 饰),不得不接受终极考验,拯救危在旦夕的地球。神秘反派奥创(詹姆斯·斯派德 James Spader 配音)逐渐崛起,超级英雄们必须重新集结,竭力阻止奥创实施人类灭绝计划。战斗中,复仇者联盟成员们还遇到了两个新人物——旺达·马克西莫夫(伊丽莎白·奥尔森 Elizabeth Olsen 饰)和皮特罗·马克西莫夫(亚伦·泰勒-约翰逊 Aaron Taylor-Johnson 饰),以及以全新面目归来的老朋友——幻视(保罗·贝坦尼 Paul Bettany 饰)。

世界秩序濒临崩溃,复仇者联盟必须阻止奥创的阴谋。强敌不断出现,一场空前绝后的全球浩战即将展开……

花絮

.《复仇者联盟:奥创时代》这个名字和漫威2013年新出的一套10卷本漫画同名,但是,电影故事不会根据漫画改编,导演乔斯·韦登和编剧们早就已经按他们的规划写剧本了。

.《复仇者联盟》中由汤姆·希德勒斯顿扮演的反派“洛基”不会出现在本片中。

.饰演黑寡妇的斯嘉丽·约翰逊在电影拍摄期间怀有身孕,导演并没有因此削减她的戏份,而是请了三个替身共同完成较激烈的打戏,会在她们的脸部表情关键点上标记,方便后期合成处理表情捕捉。

.斯坦·李称在自己所有的客串中,他最喜欢在该片中的客串。

.绿巨人浩克本次有了一条弹力裤。他把这条裤子穿在衣服底下,这样下次变身时就不会再发生尴尬情况了。这条高科技短裤由超细纤维制成,可以随意伸展。

.托尼·斯塔克升级了鹰眼的装备,使他有各式箭头配合各种目的使用。部分箭头的作用在电影中有明确展示,部分则会让观众看得目瞪口呆。箭筒也变得更高级——更自动化、装箭速度更快,可装九支箭。

.鹰眼的弓也得到了改良,从黑色被漆成了红褐色,并增加了红外线瞄准和声波瞄准装置。

.美国队长的盾牌同样有令人眼前一亮的变化。如今它可以被随时召回,就像钢铁侠的装甲一样。盾牌背面的皮带扣被磁铁吸引装置所取代,它们被固定在美队的长手套上。

.托尼·斯塔克也给黑寡妇装备了炫酷的新武器——一对战斗短棍,由菲律宾竹节棍演化而来。黑寡妇的短棍需要充电,所以当她戳刺的时候,不仅会攻击敌人,还会迸发强大的电力。

.艺术指导查尔斯·伍德及其团队建了一个全新复仇者大楼,是漫威影史上最大的场景。片中大量剧情都发生在不同楼层。巨大落地窗尽收纽约风景,昆式喷气机的机库近在眼前。数个环境相连,可上下移动。

.复仇者大楼满足了故事需要。大楼由托尼·斯塔克设计建造,复仇者们在这里制定作战计划、谈谈生意、学习或休息。这里有一个客厅、三个实验室和一个机械室、一间健身房、一个休息区及一个衣帽间。

.为了让故事有更真实的背景,并展现复联护卫全世界的精髓,《复仇者联盟2:奥创纪元》辗转多个地方取景。英国、南非、意大利、韩国等多个地方都留下了剧组的足迹,大大增加了故事的广度和深度。

.在韩国拍摄的部分对韩国女演员秀贤来说意义非凡。她成长于首尔,在影片中饰演赵海伦博士一角。《复仇者联盟2:奥创纪元》部分场景摄于韩国这一点让她感到非常自豪。

.首尔拍摄的独特之处在于启用了无人机和遥控汽车进行拍摄,因为某些地方连摄影师和直升飞机都无法到达。影片的拍摄得到了韩国无人机驾驶冠军和遥控汽车大赛冠军的大力支持。

获奖记录

青少年选择奖(2015;第17届)

获奖
·青少年选择奖-最抢戏明星克里斯·埃文斯 Chris Evans

提名
·青少年选择奖-最佳科幻/奇幻电影男演员小罗伯特·唐尼 Robert Downey Jr.
·青少年选择奖-最佳科幻/奇幻电影男演员克里斯·埃文斯 Chris Evans
·青少年选择奖-最佳科幻/奇幻电影女演员斯嘉丽·约翰逊 Scarlett Johansson
·青少年选择奖-最佳科幻/奇幻电影
·青少年选择奖-最具突破影人伊丽莎白·奥尔森 Elizabeth Olsen

General

Unique ID                      : 239908297313859090968890439712215420882 (0xB47CA8496CB7D8C792DC4113ADE04FD2)

Complete name                  : Avengers.Age.of.Ultron.2015.1080p.WEB-DL.H264.AC3-SHOW.mkv

Format                         : Matroska

Format version                 : Version 4 / Version 2

File size                      : 9.74 GiB

Duration                       : 2h 21mn

Overall bit rate               : 9 838 Kbps

Movie name                     : Avengers: Age of Ultron (2015)

Encoded date                   : UTC 2015-08-22 19:39:59

Writing application            : mkvmerge v7.5.0 ('Glass Culture') 64bit built on Jan  4 2015 16:48:44

Writing library                : libebml v1.3.1 + libmatroska v1.4.2

DURATION                       : 02:13:27.080000000

NUMBER_OF_FRAMES               : 1908

NUMBER_OF_BYTES                : 218612

_STATISTICS_WRITING_APP        : mkvmerge v7.5.0 ('Glass Culture') 64bit built on Jan  4 2015 16:48:44

_STATISTICS_WRITING_DATE_UTC   : 2015-08-22 19:39:59

_STATISTICS_TAGS               : BPS DURATION NUMBER_OF_FRAMES NUMBER_OF_BYTES

Video

ID                             : 1

Format                         : AVC

Format/Info                    : Advanced Video Codec

Format profile                 : High@L4

Format settings, CABAC         : Yes

Format settings, ReFrames      : 4 frames

Codec ID                       : V_MPEG4/ISO/AVC

Duration                       : 2h 21mn

Bit rate mode                  : Constant

Bit rate                       : 9 258 Kbps

Nominal bit rate               : 10 000 Kbps

Width                          : 1 920 pixels

Height                         : 816 pixels

Display aspect ratio           : 2.35:1

Frame rate mode                : Constant

Frame rate                     : 23.976 fps

Color space                    : YUV

Chroma subsampling             : 4:2:0

Bit depth                      : 8 bits

Scan type                      : Progressive

Bits/(Pixel*Frame)             : 0.246

Stream size                    : 9.16 GiB (94%)

Title                          : English NTSC WEBRip 1080p H264

Language                       : English

Default                        : Yes

Forced                         : No

Color range                    : Limited

Color primaries                : BT.709

Transfer characteristics       : BT.709

Matrix coefficients            : BT.709

Audio

ID                             : 2

Format                         : AC-3

Format/Info                    : Audio Coding 3

Mode extension                 : CM (complete main)

Format settings, Endianness    : Big

Codec ID                       : A_AC3

Duration                       : 2h 21mn

Bit rate mode                  : Constant

Bit rate                       : 384 Kbps

Channel(s)                     : 6 channels

Channel positions              : Front: L C R, Side: L R, LFE

Sampling rate                  : 48.0 KHz

Compression mode               : Lossy

Stream size                    : 389 MiB (4%)

Title                          : English NTSC WEB-DL AC3 5.1

Language                       : English

Default                        : Yes

Forced                         : No

Text

ID                             : 3

Format                         : ASS

Codec ID                       : S_TEXT/ASS

Codec ID/Info                  : Advanced Sub Station Alpha

Compression mode               : Lossless

Title                          : Chinese&English

Language                       : Chinese

Default                        : Yes

Forced                         : No

Menu

00:00:00.000                   : en:1

00:12:15.000                   : en:2

00:21:24.000                   : en:3

00:33:01.000                   : en:4

00:36:07.000                   : en:5

00:42:00.000                   : en:6

00:52:43.000                   : en:7

00:59:00.000                   : en:8

01:15:51.000                   : en:9

01:27:08.000                   : en:10

01:36:44.000                   : en:11

01:54:35.000                   : en:12

02:06:27.000                   : en:13

02:11:08.000                   : en:14

《复仇者联盟2:奥创纪元》Avengers: Age of Ultron(2015)[MKV-1080P/9.8GB]

《复仇者联盟2:奥创纪元》Avengers: Age of Ultron(2015)[MKV-1080P/9.8GB]

《复仇者联盟2:奥创纪元》Avengers: Age of Ultron(2015)[MKV-1080P/9.8GB]

《复仇者联盟2:奥创纪元》Avengers: Age of Ultron(2015)[MKV-1080P/9.8GB]

《复仇者联盟2:奥创纪元》Avengers: Age of Ultron(2015)[MKV-1080P/9.8GB]

 

 

提示:推荐使用BitComet、Utorrent、QQ旋风、迅雷下载。喜欢在线看的朋友可以把种子上传到百度网盘、115网盘,离线下载完手机电脑都可以在线看。

《复仇者联盟2:奥创纪元》Avengers: Age of Ultron(2015)[MKV-1080P/9.8GB]:等您坐沙发呢!

发表评论

您必须 [ 登录 ] 才能发表留言!